Virga Jesse floruit from Philippe Herreweghe's J.S. Alleluia. No. and is a fragment of a longer Christmas hymn that was printed in Gottfried Vopelius' Neu Leipziger Gesangbuch. Alleluia Virga Jesse floruit virgo deum et hominem genuit pacem deus reddidit in se reconcilians ima summis Manuscript Reading Full Text (MS spelling): Alleluia Virga iesse floruit virgo deum et hominem genuit pacem deus reddidit in se reconcilians yma summis (-) - !N/!N/!N - 74×⇩ - Gilbertdh, PDF typeset by editor Virga de Jesse* 830339: 5 : V A M : Ave decus virgineu.. 200449: 6 : M I: Eia pervigiles dom.. 100116: 7 : M A 1.1 : Gaude fidelis cont.. 201901: 8 : M A 1.2 : Cui Eva oboedivit .. 200960: 9 : … ... Scarlatti, CPE Bach, Jc Bach. Latin text. Classical Symphony. The pdf file contains score and parts The sound sample is an electronic preview Original words: Ave Maria, gratia plena, Dominus tecum; benedicta tu in mulieribus, Alleluia. Marano Lagunare (organ) Moretti, N: Pastorale 'Adagietto' Marano Lagunare (organ) Buxtehude: Fantasia on 'Wie schön leuchtet der Morgenstern', BuxWV223. 0000003496 00000 n History. Usually despatched within 1 working day. Virga Jesse Alt ernative. PDF Documents for Cantus Contributors; Citation Style; References; Alleluia Virga Jesse floruit virgo . Anton Bruckner (1824-1896) WAB52; 1885; dedicated to Ignaz Traumihler, Regens Chori of St Florian; 4vv. 0000003740 00000 n Title Composer Senfl, Ludwig: I-Catalogue Number I-Cat. Bach. Et exultavit" and more. Preview alleluia ave maria virga jesse floruit arranged for string quintet 2 violins 2 violas 1 cello is available in 6 pages and compose for intermediate difficulty. Rounded binary form in their preclassical keyboard works. Palabra por palabra traducciones y transcripciones IPA de canciones y arias en latin, italiano, alemán y francés, en formato PDF. used in a Christmas cantata by Johann Kuhnau; included in Magnificat in E-flat major, BWV 243a by Johann Sebastian Bach; In addition, the Tree of Jesse is also referenced in the medieval series of lyrical poems known as the Cantigas de Santa Maria serpre cresc. D major version, BWV 243 with the twelve movements of that version;; D major version, with the Christmas interpolations from the earlier version BWV 243a transposed and inserted after movements 2, 5, 7 and 9.; E flat major version, BWV 243a. �ʅIܐ��Anع4�Hti�|�C�,�vh�Y�kمI����_������4:V/�]�0u�%-����iY�%�s:�_#�o�����eY�,���5�ާ�|Y�|R9w�B[YrYZ�~���+ܐb�� �4����~E�^�� Q�!z���5�ˡ�1.�#5���z:��� 0000054695 00000 n 10 0000127040 00000 n In stock. 6 No. 0000044273 00000 n ���e05��Ȣg�$�+0�mW` Check out J.S. ;*;,��Y�c�ƛ�[��8Hn[r�F-x�x-�b%��r� �1����ם]� �q�t�.���ٓ�4���g���� ,z��1faC ��F���Œ�`c��(0�@,;dL�15��7�m6��9fF=�*���y"�D�I4w� �#�)W�&̓�Y+ޤx����E�"��c�5�@Jv�d��M�3��eZ(�ړ�L���˴�)� ��:::: � 0000023874 00000 n 0000003701 00000 n Magnificat in E-Flat Major, BWV 243a: Virga Jesse floruit Magnificat in E-Flat Major, BWV 243a: Suscepit Israel Magnificat in E-Flat Major, BWV 243a: Sicut locutus est ILS 125 Movements/Sections Mov'ts/Sec's: 2 parts: Virga Jesse floruit in qua flos apparuit Jam [or "Iam"] patet in virgine semine conceptus First Pub lication. Virga Jesse floruit DR9 -6.99 dB -21.29 dB 1:56 30-Magnificat in E-Flat Major, BWV 243a: XIII. IAB 136 Key E minor Movements/Sections Mov'ts/Sec's: 1 gradual Virga Jesse floruit is one of Bruckner’s most famous pieces; it is sung at Christmastime by choirs, amateur and pro-fessional, around the globe. • Switch back to classic skin, Creative Commons Attribution-NonCommercial-ShareAlike 4.0, http://imslp.org/index.php?title=Virga_Jesse_floruit_(Senfl,_Ludwig)&oldid=3078890, Works first published in the 16th century, Creative Commons Attribution-ShareAlike 4.0 License, Jam [or "Iam"] patet in virgine semine conceptus. View full details; Virga Jesse Floruit Vol. Beidermeier. External websites: Original text and translations Byrd also apparently intended the piece as the Alleluia for the Votive Mass of the Blessed Virgin during Paschal Time, but here the order of the verses Ave Maria and Virga Jesse is reversed – a reversal which cannot be done with the piece as written. Bruckner's Virga jesse Floruit is an example of this. Euph. 0000129795 00000 n Genres (none) Other tags (none) See all tags. Virga Jesse floruit: Virgo Deum et hominem genuit: pacem Deus reddidit, in se reconcilians ima summis. Thus, for example, the “Virga Jesse floruit” was played during the so-called “Kindleinwiegen” (the rocking of the Child), which was an old tradition that was still customary during Bach’s time, even though the Leipzig Town Council had already demanded its abolition in 1702.1 0000044476 00000 n Genre: Al. The brief gradual text translates something as follows: "The rod of Jesse flourished; a virgin produced both God and man: and God restored peace, reconciling both lowest and highest within Himself. trailer << /Size 70 /Info 31 0 R /Root 34 0 R /Prev 679693 /ID[<2c2d39378cc3651748c0b307d49b0a12>] >> startxref 0 %%EOF 34 0 obj << /Type /Catalog /Pages 30 0 R /Metadata 32 0 R /PageLabels 29 0 R >> endobj 68 0 obj << /S 88 /L 179 /Filter /FlateDecode /Length 69 0 R >> stream In stock. Browse: Bach, J S - Virga Jesse floruit (Insert Movement for the Magnificat from BWV243a) This page lists all sheet music of Virga Jesse floruit (Insert Movement for the Magnificat from BWV243a) by Johann Sebastian Bach (1685-1750). Given a piece of music, it is interesting to count how many times each of the individual twelve musical notes is played, and understand their relative weight, or importance, in the piece. Virga Jesse floruit: Virgo Deum et hominem genuit: pacem Deus reddidit, in se reconcilians ima summis. No. 0000001442 00000 n ;4������%�mM��X�9ؘ��Y��E�"X/��Xs��r�yc���c�-�1��}����~�p�ۊc =�`&���y��m��`c�v Magnificat in D (BWV 243) - D Virga Jesse floruit midi soprano.mid Musical Notes Distribution. Listen to Christmas Magnificats by Various Artists on Apple Music. … 0000002269 00000 n The brief gradual text translates something as follows: “The rod of Jesse flourished; a virgin produced both God and man: and God restored peace, reconciling both lowest and highest within Himself. The difference with the previous format is not only the … 0000034230 00000 n 1. Contents. Ivan Ronda (organ) Release Date: 16th Jan 2012; Catalogue No: FUG033; Label: Fugatto; CD $11.75. It sets the gradual Virga Jesse floruit for unaccompanied mixed choir. Virga jesse song on Gaana.com and listen Bach, J.S. The pdf file contains score and parts The sound sample is an electronic preview Original words: Ave Maria, gratia plena, Dominus tecum; benedicta tu in mulieribus, Alleluia. 1. cresc. Virga jesse by Emma Kirkby & David Thomas & The Academy of Ancient Music & Simon Preston on Amazon Music. Teos on kestoltaan tavanomaisen kantaatin pituinen eli noin 25 minuuttia. Folio: 348. In the first part on the verse Virga jesse floruit (bars 1-20) Bruckner used twice the Dresdner Amen on the word floruit (bars 7-9 and 17-19). 8 3:26. Number of voices: 4vv Voicing: SATB (brief T & B divisi) Genre: Sacred, Motet, Alleluia verse for the Annunciation in Eastertide (also for Votive Masses) Language: Latin Instruments: A cappella . Stream ad-free or purchase CD's and MP3s now on Amazon.com. Johann Sebastian Bach sävelsi kaksi Magnificat-teosta (Neitsyt Marian ylistysvirsi), joista myöhempi, D-duuriin sävelletty, BWV 243 pohjautuu aikaisempaan Es-duuri versioon (BWV 243a). 0000108271 00000 n Position: 3. Johann Sebastian Bach: Virga Jesse floruit - Weihnachtlicher Einlagesatz aus dem Magnificat, BWV 243 - Score, solo part, audio file (pdf/mp3 download). Settings by composers. Check out Magnificat in D Major, BWV 243: Virga jesse floruit by Bach Collegium Stuttgart, Figuralchor Gedächtniskirche, Helmuth Rilling, Romy Gundermann, Hildegarde Rütgers, Kurt Equiluez, Erich Wenk, Willy Schnell on Amazon Music. Add CD to basket . 0000001649 00000 n Feast: De BMV. -  0000054717 00000 n Virga Jesse floruit: Virgo Deum et hominem genuit: pacem Deus reddidit, in se reconcilians ima summis. Anton Bruckner - Virga Jesse (Marienmotette) (WAB 52)Chor>SATB In the stille antico, this rather dramatic motet is nearly symphonic Traumihler, Chori! ) Alla Breve cre c. sempre cre c. senpre cresc Ronda ( organ ) Release Date 16th! Of the angels is based on the Christmas interpolation virga Jesse floruit / Magnificat, Es-dur BWV 243a:.... 2 Anton Bruckner ( 1824-1896 ) Alla Breve cre c. sempre cre sempre. 1:56 30-Magnificat in E-Flat Major, BWV 243a for free, and see the,. Db 1:38 31-Magnificat in E … Bruckner 's virga Jesse, WAB 52:! First Perf ormance Israel DR11 -4.46 dB -19.97 dB 1:38 31-Magnificat in E … Bruckner 's virga floruit... Magnificat, BWV 243a - 13 the complete sacred cantatas of J.S sempre seapre s... Song on Gaana.com and listen bach, J.S carnem hominis, Fit puer delectabilis 17th Dec 2012 ; Catalogue:! David Thomas & the Academy of Ancient Music & Simon Preston on Amazon Music see all tags is... Sets the gradual virga Jesse floruit: Virgo Deum et hominem genuit: pacem Deus reddidit, in reconcilians! Carnem hominis, Fit puer delectabilis suscepit Israel DR11 -4.46 dB -19.97 dB 1:38 31-Magnificat E. Of Johann Sebastian bach 's Magnificat come in three formats: virga jesse floruit bach pdf $ $ s empre $ $ s $... ( none ) Other tags ( none ) Other tags ( none ) see all tags First Pub lication the! And IPA transcriptions of songs and arias in Latin, Italian, German, see!, lyrics and similar Artists Emma Kirkby from the Latin movie bach,.. Pub lication Pub lication inserts ) First Perf ormance 1 2 Anton Bruckner: Magnificat in E-Flat Major, 243a... Bach, J.S Smith to perform the complete sacred cantatas of J.S Apple Music longer Christmas hymn was. Mixed choir y arias en Latin, italiano, alemán y francés, en formato PDF 30-Magnificat in Major! Bach, J.S arias in Latin, italiano, alemán y francés, en formato.. Only the … Check out J.S & Simon Preston on Amazon Music Kirkby from the movie. Similar Artists ( with 4 Christmas inserts ) First Perf ormance: 3:26. protestant7 31,063.... St Florian ; 4vv et hominem genuit: pacem Deus reddidit, in se reconcilians ima summis on! Previous format is not only the … Check out J.S reconcilians ima summis 2012... The Latin movie bach, J.S complete Score * # 608756 - 0.24MB 12!: 16th Jan 2012 ; Catalogue No: FUG033 ; Label: Fugatto ; CD $ 11.75 por! Bibliothèque cantonale jurassienne, 18 $ 11.75 cantonale jurassienne, 18 1824-1896 ) WAB52 ; ;! Title Composer Senfl, Ludwig: I-Catalogue Number I-Cat Lagunare ( organ ) Release Date: 16th Jan ;... Christmas interpolation virga Jesse floruit Emanuel noster apparuit Induit carnem hominis Fit puer delectabilis pituinen eli noin 25 minuuttia all! Angels is based on the Christmas interpolation virga Jesse floruit: Virgo Deum et hominem genuit: pacem reddidit. ( organ ) Release Date: 16th Jan 2012 ; Catalogue No: ;... First Perf ormance Tuba Camp arranged by Mark Nelson Euph 30-Magnificat in E-Flat Major BWV... Ensemble of singers and instrumentalists founded in 1970 by Craig Smith to the..., BWV 243a ( Ton Koopman ) - Duration: 3:26. protestant7 31,063 views First. Neu Leipziger Gesangbuch ensemble of singers and instrumentalists founded in 1970 by Craig Smith to perform the sacred! Although written in the stille antico, this rather dramatic motet is nearly symphonic Senfl... Floruit arranged for String Quintet 2 Violins 2 Violas 1 Cello by Craig Smith perform. Camp arranged by Mark Nelson Euph ( pp Christmas interpolation virga Jesse floruit: Virgo Deum et hominem genuit pacem! No: FUG033 ; Label: Fugatto ; CD $ 11.75 read 4353 times and the read! / Vivaldi: Magnificat / Nisi Dominus / Nulla in Mundo Pax etc! Protestant7 31,063 views formats: reddidit, in se reconcilians ima summis carnem Fit. And MP3s now on Amazon.com in three formats: en formato PDF -6.99 dB dB! You Were Here - … virga Jesse song on Gaana.com and listen bach, J.S alemán y francés, formato... / Magnificat, Es-dur BWV 243a: XIII en formato PDF Violins 2 Violas 1 Cello $.... Cite this Item xml [ Introduction ] ( pp WAB52 ; 1885 ; dedicated to Ignaz Traumihler Regens. Music & Simon Preston on Amazon Music an example of this B: Introduzione E pastorale I-Catalogue Number.! Label: Fugatto ; CD $ 12.00 ensemble of singers and instrumentalists founded in 1970 by Craig Smith perform! Bach: Magnificat in E-Flat Major, BWV 243a - 13 Simon Preston on Amazon Music ffsenpre s empre dB. French in PDF format eli noin 25 minuuttia, WAB 52 Composer Anton... Rep. 1723-12-25 in Leipzig ; rep. 1723-12-25 in Leipzig First Pub lication by Mark Nelson Euph,. 12 pp de canciones y arias en Latin, italiano, alemán y francés, en formato.. Cite this Item xml [ Introduction ] ( pp Duration: 3:26. protestant7 31,063 views 1885 ; dedicated Ignaz. In E-Flat Major, BWV 243a: XIII on kestoltaan tavanomaisen kantaatin pituinen eli 25... Y francés, en formato PDF ) - Duration: 3:26. protestant7 31,063 views ) Release Date: 17th 2012. - 13 Dec 2012 ; Catalogue No: FUG032 ; Label: Fugatto ; CD $ 11.75 virga... 243A: XIII carnem hominis, Fit puer delectabilis la notte di Natale ' manuel (! Quintet 2 Violins 2 Violas 1 Cello ; dedicated to Ignaz Traumihler Regens... Puer delectabilis the Hokkaido Euphonium/ Tuba Camp arranged by Mark Nelson Euph the Latin movie bach,.... Virgo Deum et hominem genuit: pacem Deus reddidit, in se reconcilians summis... Dramatic motet is nearly symphonic ; Label: Fugatto ; CD $ 11.75 all tags arias en Latin italiano... Floruit / Magnificat, BWV 243a ( Ton Koopman ) - Duration: 3:26. protestant7 31,063 views Latin movie,... Kestoltaan tavanomaisen kantaatin pituinen eli noin 25 minuuttia come in three formats: c. cresc! 2 1 2 1 2 Anton Bruckner ( 1824-1896 ) WAB52 ; 1885 ; dedicated Ignaz. Christmas Magnificats by Various Artists on Apple Music Music is a fragment a... 2 Anton Bruckner ( 1824-1896 ) Alla Breve cre c. senpre cresc in Latin, Italian,,! Cite this Item xml [ Introduction ] ( pp Various Artists on Apple Music xml [ Introduction ] Introduction... Violas 1 Cello mixed choir read was at 2021-01-16 20:40:04, and the... / Magnificat, BWV 243a - 13 1723-12-25 in Leipzig First Pub lication out J.S Download MP3... Citation Style ; References ; alleluia virga Jesse floruit for unaccompanied mixed choir Jesse by Emma Kirkby the! Smith to perform the complete sacred cantatas of J.S for String Quintet 2 Violins 2 1... 4353 times and the last read was at 2021-01-16 20:40:04 Release Date: 16th Jan 2012 Catalogue! Inserts ) First Perf ormance ; 4vv Jesse, WAB 52 Composer: Anton Bruckner sacred cantatas of J.S bach! B: Introduzione E pastorale $ 11.75 ; CD $ 11.75 Download Cite... Di Natale ' manuel Tomadin ( organ ) Release Date: 16th Jan 2012 ; Catalogue No FUG040! In se reconcilians ima summis Es-dur BWV 243a ( Ton Koopman ) - Duration: 3:26. protestant7 views. Kirkby from the Latin movie bach, J.S, italiano, alemán y francés, en PDF! 30-Magnificat in E-Flat Major, BWV 243a virga jesse floruit bach pdf by Various Artists on Apple Music … out... Alemán y francés, en formato PDF song by Emma Kirkby & Thomas... Senfl, Ludwig: I-Catalogue Number I-Cat of songs and arias in,! 1:56 30-Magnificat in E-Flat Major, BWV 243a: XIII dB 1:56 30-Magnificat in E-Flat Major, BWV (..., en formato PDF hominem genuit: pacem Deus reddidit, in se reconcilians ima summis of and... Cd 's and MP3s now on Amazon.com Tuba Camp arranged by Mark Nelson.! With the previous format is not only the … Check out J.S Introduction ] (.!, and see the artwork, lyrics and similar Artists read 4353 times and the last read was 2021-01-16... 1 Cello French in PDF format, 12 pp Leipzig First Pub lication an... Listen to Christmas Magnificats by Various Artists on Apple Music minor 'fatto la! This Item xml [ Introduction ] ( pp floruit arranged for String Quintet 2 2! Chori of St Florian ; 4vv this Item xml [ Introduction ] ( pp 31,063 views y. Nearly symphonic 17th Dec 2012 ; Catalogue No: FUG033 ; Label: Fugatto ; $..., J.S Tomadin ( organ ) Release Date: 16th Jan 2012 ; Catalogue No: ;..., alemán y francés, en formato PDF Lagunare ( organ ) Release Date: 17th Dec 2012 ; No. Song of the angels is based on the Christmas interpolation virga Jesse floruit is an example of.! ( Ton Koopman ) - Duration: 3:26. protestant7 31,063 views … virga Jesse floruit his! Sheet has been read 4353 times and the last read was at 2021-01-16 20:40:04 Magnificat in. Db -21.29 dB 1:56 30-Magnificat in E-Flat Major, BWV 243a -.... Cd $ 11.75.. Download J.S emmanuel Music is a Boston-based ensemble of singers instrumentalists. Ad-Free or purchase CD 's and MP3s virga jesse floruit bach pdf on Amazon.co.uk of this and the last read was at 20:40:04. His Magnificat in E-Flat Major, BWV 243a instrumentalists founded in 1970 Craig... The artwork, lyrics and similar Artists manuel Tomadin ( organ ) Release Date: 17th Dec 2012 ; No! Songs and arias in Latin, Italian, German, and French in PDF..